Скачать Артур Пирожков - Клипы (2010-2020) WEBRip 720p, WEBRip 1080p торрент

VA - Radio DFM: Top D-Chart [18.01] (2020) MP3

VA - 100 Greatest Summer Songs (2020) MP3

Savage - Love And Rain (2020) MP3

Сборник - В машине с музыкой Vol. 35 (2020) MP3

Грязный Эндрю - Матерные частушки (2020) FLAC

VA - Radio Italia Love 2020 [2CD] (2020) MP3

VA - Зайцев FM: Тор 50 Февраль Vol.2 (2020) MP3

Тима Белорусских - Моя кассета-Твой первый диск: сторона B (2020) MP3

Сборник - Лучшие альбомы 70-х по версии журнала Classic Rock (1970-1979) MP3

Сборник - Музыка в твоей машине Vol.2 (2020) MP3, FLAC

Внезапно 50. Концерт Дмитрия Маликова (2020) WEB-DLRip (720p)

VA - The Official UK Top 40 Singles Chart [24.01] (2020) MP3

Внезапно 50. Концерт Дмитрия Маликова (2020) WEBRip 720p

Скачать сборники и альбомы музыки через торрент:

Артур Пирожков - Клипы (2010-2020) WEBRip 720p, WEBRip 1080p

Артур Пирожков - Клипы (2010-2020) WEBRip 720p, WEBRip 1080p

Название: Артур Пирожков - 22 Music Videos
Исполнитель: Артур Пирожков
Год выхода: 2010-2020
Жанр: Russian Pop Music
Продолжительность: 01:29:16
Формат: [xfgiven_minidescr6] [xfgiven_minidescr6]
Размер: 1.86 GB


ID-файла: 4728
Размер: 42,48 Kb
Дата: 15-02-2020, 11:07
Формат файла: torrent

Список композиций:
01 7d0ff22
Color range
: Limited
Color primaries
: BT.709
Transfer characteristics
: BT.709
Matrix coefficients
: BT.709
Codec configuration box
: avcC
Audio
ID
: 2
Format
: AAC LC
Format/Info
: Advanced Audio Codec Low Complexity
Codec ID
: mp4a-40-2
Duration
: 3 min 37 s
Bit rate mode
: Constant
Bit rate
: 128 kb/s
Channel(s)
: 2 channels
Channel layout
: L R
Sampling rate
: 44.1 kHz
Frame rate
: 43.066 FPS (1024 SPF)
Compression mode
: Lossy
Stream size
: 3.33 MiB (6%)
Title
: ISO Media file produced by Google Inc. Created on: 03/16/2019.
Default
: Yes
Alternate group
: 1
General
Complete name
: E:VIDEO MUSICPOP RUArtur Pirozhkov - Videoclips (2010-2019)2014 Сопрано Турецкого ft. Artur Pirozhkov На лету лето HD_1080 2014.mp4
Format
: MPEG-4
Format profile
: Base Media
Codec ID
: isom (isom/iso2/avc1/mp41)
File size
: 87.1 MiB
Duration
: 4 min 6 s
Overall bit rate
: 2 962 kb/s
Writing application
: Lavf58.29.100
Video
ID
: 1
Format
: AVC
Format/Info
: Advanced Video Codec
Format profile
: High@L4
Format settings
: CABAC / 3 Ref Frames
Format settings, CABAC
: Yes
Format settings, Reference frames
: 3 frames
Codec ID
: avc1
Codec ID/Info
: Advanced Video Coding
Duration
: 4 min 6 s
Bit rate
: 2 832 kb/s
Width
: 1 920 pixels
Height
: 1 080 pixels
Display aspect ratio
: 16:9
Frame rate mode
: Constant
Frame rate
: 25.000 FPS
Color space
: YUV
Chroma subsampling
: 4:2:0
Bit depth
: 8 bits
Scan type
: Progressive
Bits/(Pixel*Frame)
: 0.055
Stream size
: 83.2 MiB (96%)
Codec configuration box
: avcC
Audio
ID
: 2
Format
: AAC LC
Format/Info
: Advanced Audio Codec Low Complexity
Codec ID
: mp4a-40-2
Duration
: 4 min 6 s
Bit rate mode
: Constant
Bit rate
: 126 kb/s
Channel(s)
: 2 channels
Channel layout
: L R
Sampling rate
: 44.1 kHz
Frame rate
: 43.066 FPS (1024 SPF)
Compression mode
: Lossy
Stream size
: 3.69 MiB (4%)
Default
: Yes
Alternate group
: 1
General
Complete name
: E:VIDEO MUSICPOP RUArtur Pirozhkov - Videoclips (2010-2019)2017 Artur Pirozhkov - Либо любовь HD_1080 2017.mp4
Format
: MPEG-4
Format profile
: Base Media
Codec ID
: isom (isom/iso2/avc1/mp41)
File size
: 107 MiB
Duration
: 6 min 10 s
Overall bit rate
: 2 433 kb/s
Writing application
: Lavf58.29.100
Video
ID
: 1
Format
: AVC
Format/Info
: Advanced Video Codec
Format profile
: High@L4
Format settings
: CABAC / 3 Ref Frames
Format settings, CABAC
: Yes
Format settings, Reference frames
: 3 frames
Codec ID
: avc1
Codec ID/Info
: Advanced Video Coding
Duration
: 6 min 10 s
Bit rate
: 2 299 kb/s
Width
: 1 920 pixels
Height
: 1 080 pixels
Display aspect ratio
: 16:9
Frame rate mode
: Constant
Frame rate
: 25.000 FPS
Color space
: YUV
Chroma subsampling
: 4:2:0
Bit depth
: 8 bits
Scan type
: Progressive
Bits/(Pixel*Frame)
: 0.044
Stream size
: 102 MiB (94%)
Title
: ISO Media file produced by Google Inc.
Writing library
: x264 core 155 r2901 7d0ff22
Color range
: Limited
Color primaries
: BT.709
Transfer characteristics
: BT.709
Matrix coefficients
: BT.709
Codec configuration box
: avcC
Audio
ID
: 2
Format
: AAC LC
Format/Info
: Advanced Audio Codec Low Complexity
Codec ID
: mp4a-40-2
Duration
: 6 min 10 s
Bit rate mode
: Constant
Bit rate
: 128 kb/s
Channel(s)
: 2 channels
Channel layout
: L R
Sampling rate
: 44.1 kHz
Frame rate
: 43.066 FPS (1024 SPF)
Compression mode
: Lossy
Stream size
: 5.65 MiB (5%)
Title
: ISO Media file produced by Google Inc.
Language
: English
Default
: Yes
Alternate group
: 1
General
Complete name
: E:VIDEO MUSICPOP RUArtur Pirozhkov - Videoclips (2010-2019)2018 Artur Pirozhkov - Chika (Production MAG Film) HD_1080p 2018.mp4
Format
: MPEG-4
Format profile
: Base Media / Version 2
Codec ID
: mp42 (mp42/mp41/isom/avc1)
File size
: 108 MiB
Duration
: 3 min 37 s
Overall bit rate mode
: Variable
Overall bit rate
: 4 173 kb/s
Encoded date
: UTC 2019-10-20 11:56:03
Tagged date
: UTC 2019-10-20 11:56:03
Video
ID
: 1
Format
: AVC
Format/Info
: Advanced Video Codec
Format profile
: High@L4
Format settings
: CABAC / 5 Ref Frames
Format settings, CABAC
: Yes
Format settings, Reference frames
: 5 frames
Codec ID
: avc1
Codec ID/Info
: Advanced Video Coding
Duration
: 3 min 37 s
Bit rate
: 3 915 kb/s
Width
: 1 920 pixels
Height
: 1 080 pixels
Display aspect ratio
: 16:9
Frame rate mode
: Constant
Frame rate
: 25.000 FPS
Color space
: YUV
Chroma subsampling
: 4:2:0
Bit depth
: 8 bits
Scan type
: Progressive
Bits/(Pixel*Frame)
: 0.076
Stream size
: 101 MiB (94%)
Writing library
: x264 core 157 r10 d4099dd
Encoding settings
: cabac=1 / ref=5 / deblock=1:0:0 / analyse=0x3:0x113 / me=hex / subme=8 / psy=1 / psy_rd=1.00:0.00 / mixed_ref=1 / me_range=16 / chroma_me=1 / trellis=2 / 8x8dct=1 / cqm=0 / deadzone=21,11 / fast_pskip=1 / chroma_qp_offset=-2 / threads=34 / lookahead_threads=5 / sliced_threads=0 / nr=0 / decimate=1 / interlaced=0 / bluray_compat=0 / stitchable=1 / constrained_intra=0 / bframes=3 / b_pyramid=2 / b_adapt=2 / b_bias=0 / direct=3 / weightb=1 / open_gop=0 / weightp=2 / keyint=infinite / keyint_min=25 / scenecut=40 / intra_refresh=0 / rc_lookahead=50 / rc=crf / mbtree=1 / crf=20.0 / qcomp=0.60 / qpmin=5 / qpmax=69 / qpstep=4 / vbv_maxrate=5500 / vbv_bufsize=15000 / crf_max=0.0 / nal_hrd=none / filler=0 / ip_ratio=1.40 / aq=1:1.00
Encoded date
: UTC 2019-10-20 11:56:03
Tagged date
: UTC 2019-10-20 11:56:03
Color range
: Limited
Color primaries
: BT.709
Transfer characteristics
: BT.709
Matrix coefficients
: BT.709
Codec configuration box
: avcC
Audio
ID
: 2
Format
: AAC LC
Format/Info
: Advanced Audio Codec Low Complexity
Codec ID
: mp4a-40-2
Duration
: 3 min 37 s
Bit rate mode
: Variable
Bit rate
: 253 kb/s
Channel(s)
: 2 channels
Channel layout
: L R
Sampling rate
: 48.0 kHz
Frame rate
: 46.875 FPS (1024 SPF)
Compression mode
: Lossy
Stream size
: 6.57 MiB (6%)
Encoded date
: UTC 2019-10-20 11:56:03
Tagged date
: UTC 2019-10-20 11:56:03
General
Unique ID
: 196172163955326308180130231576307603316 (0x9395626D6433CABE56DDFE3E852A9774)
Complete name
: E:VIDEO MUSICPOP RUArtur Pirozhkov - Videoclips (2010-2019)2019 Artur Pirozhkov - Алкоголичка HD_1080 2019.mkv
Format
: Matroska
Format version
: Version 4
File size
: 91.5 MiB
Duration
: 5 min 57 s
Overall bit rate
: 2 149 kb/s
Encoded date
: UTC 2019-12-11 14:08:24
Writing application
: mkvmerge v41.0.0 ('Smarra') 64-bit
Writing library
: libebml v1.3.9 libmatroska v1.5.2
Video
ID
: 1
Format
: AVC
Format/Info
: Advanced Video Codec
Format profile
: High@L4
Format settings
: CABAC / 3 Ref Frames
Format settings, CABAC
: Yes
Format settings, Reference frames
: 3 frames
Codec ID
: V_MPEG4/ISO/AVC
Duration
: 5 min 57 s
Bit rate
: 2 018 kb/s
Width
: 1 920 pixels
Height
: 1 080 pixels
Display aspect ratio
: 16:9
Frame rate mode
: Constant
Frame rate
: 25.000 FPS
Color space
: YUV
Chroma subsampling
: 4:2:0
Bit depth
: 8 bits
Scan type
: Progressive
Bits/(Pixel*Frame)
: 0.039
Stream size
: 85.9 MiB (94%)
Writing library
: x264 core 155 r2901 7d0ff22
Default
: Yes
Forced
: No
Color range
: Limited
Color primaries
: BT.709
Transfer characteristics
: BT.709
Matrix coefficients
: BT.709
Audio
ID
: 2
Format
: AAC LC
Format/Info
: Advanced Audio Codec Low Complexity
Codec ID
: A_AAC-2
Duration
: 5 min 57 s
Bit rate
: 128 kb/s
Channel(s)
: 2 channels
Channel layout
: L R
Sampling rate
: 44.1 kHz
Frame rate
: 43.066 FPS (1024 SPF)
Compression mode
: Lossy
Stream size
: 5.45 MiB (6%)
Language
: English
Default
: Yes
Forced
: No
Text
Комментарии пользователей:

Скачать похожую по жанру музыку:


Music 2020 torrent