Скачать VA - Self Control And Other Smash Club Hits (1984) FLAC торрент

Camila Cabello - Romance (2019) MP3

Сборник - Дискотека-90-х от DJ Allegro007 на Радио Paradox часть 2 (2019) MP3

Ласковый Май - Золотой альбом (2003) FLAC

VA - Top Shazam [19.11] (2019) MP3

VA - Громкие новинки Ноября Vol.2 (2019) MP3

Сборник - В машине с музыкой Vol. 8 (2019) MP3 от WXTRR

Grimes - Miss Anthropocene (2020) FLAC

VA - Take On Me: 80s Anthems - The Ultimate Collection(2019) MP3

Сборник - Кружатся диски. Популярные исполнители 70-х - 90-х годов (2013) MP3

Павел Кашин - Москва не лечится (2019) MP3

Leonard Cohen - Thanks for the Dance [24bit Hi-Res] (2019) FLAC

Сборник - В машине с музыкой Vol. 6 (2019) MP3 от WXTRR

VA - 100 Greatest Shower Songs (2019) FLAC

Скачать сборники и альбомы музыки через торрент:

VA - Self Control And Other Smash Club Hits (1984) FLAC

VA - Self Control And Other Smash Club Hits (1984) FLAC

Название: Self Control And Other Smash Club Hits
Исполнитель: VA
Год выхода: 1984
Жанр: Italo-Disco, New Wave, Synth-pop
Продолжительность: : 0:52:08:10
Формат: [xfgiven_minidescr6] [xfgiven_minidescr6]
Размер: 301.21 MB


ID-файла: 4054
Размер: 12,97 Kb
Дата: 25-11-2019, 11:07
Формат файла: torrent

Список композиций:
01 AUDIO
TITLE "Self Control"
PERFORMER "Raff"
INDEX 00 00:00:00
INDEX 01 00:00:32
TRACK 02 AUDIO
TITLE "Happy Children"
PERFORMER "P. Lion"
INDEX 00 04:15:50
INDEX 01 04:17:50
TRACK 03 AUDIO
TITLE "You've Got To Move It On"
PERFORMER "Rofo"
INDEX 00 07:58:67
INDEX 01 08:00:67
TRACK 04 AUDIO
TITLE "On The Grid"
PERFORMER "Lime"
INDEX 00 14:50:32
INDEX 01 14:52:32
TRACK 05 AUDIO
TITLE "Robert De Niro's Waiting"
PERFORMER "Bananarama"
INDEX 00 19:04:20
INDEX 01 19:06:20
TRACK 06 AUDIO
TITLE " Rise Up"
PERFORMER "The Parachute Club"
INDEX 00 22:35:65
INDEX 01 22:37:65
TRACK 07 AUDIO
TITLE "Silver Nights"
PERFORMER "Gibson Brothers"
INDEX 00 26:19:35
INDEX 01 26:21:35
TRACK 08 AUDIO
TITLE "Black And White"
PERFORMER "Patto"
INDEX 00 29:51:67
INDEX 01 29:53:67
TRACK 09 AUDIO
TITLE "Трек09"
PERFORMER "Mystic Rhythm"
INDEX 00 33:32:57
INDEX 01 33:34:57
TRACK 10 AUDIO
TITLE "Killer On The Rampage"
PERFORMER "Klapto"
INDEX 00 38:07:32
INDEX 01 38:09:32
TRACK 11 AUDIO
TITLE "A Taste Of Love"
PERFORMER "Den Harrow"
INDEX 00 42:09:57
INDEX 01 42:11:57
TRACK 12 AUDIO
TITLE "Go Go Yellow Screen"
PERFORMER "Digital Emotion"
INDEX 00 46:02:60
INDEX 01 46:04:60
_
Комментарии пользователей:

Скачать похожую по жанру музыку:


Music 2019 torrent