Скачать Robbie Williams - The Christmas Present 24bit Hi-Res, Deluxe (2019) FLAC торрент

Сборник - Дискотека-90-х от DJ Allegro007 на Радио Paradox часть 2 (2019) MP3

Camila Cabello - Romance (2019) MP3

Ласковый Май - Золотой альбом (2003) FLAC

VA - Top Shazam [19.11] (2019) MP3

VA - Громкие новинки Ноября Vol.2 (2019) MP3

Сборник - В машине с музыкой Vol. 8 (2019) MP3 от WXTRR

Grimes - Miss Anthropocene (2020) FLAC

Сборник - В машине с музыкой Vol. 6 (2019) MP3 от WXTRR

Leonard Cohen - Thanks for the Dance [24bit Hi-Res] (2019) FLAC

VA - Take On Me: 80s Anthems - The Ultimate Collection(2019) MP3

VA - 100 Greatest Shower Songs (2019) FLAC

Bonnie Tyler - The RCA Years [4CD Reissue, Remastered] (1977/2019) FLAC

Сборник - Top 100 Зайцев.нет: Ноябрь [Repack] (2019) MP3

Скачать сборники и альбомы музыки через торрент:

Robbie Williams - The Christmas Present [24bit Hi-Res, Deluxe] (2019) FLAC

Robbie Williams - The Christmas Present [24bit Hi-Res, Deluxe] (2019) FLAC

Название: The Christmas Present
Исполнитель: Robbie Williams
Год выхода: 2019
Жанр: Pop
Продолжительность: 01:32:10
Формат: FLAC
Размер: 1.07 GB


ID-файла: 4021
Размер: 13,36 Kb
Дата: 22-11-2019, 06:00
Формат файла: torrent

Список композиций:
01 dB
-10.64 dB
3:34 02-Merry Xmas Everybody
DR10
-1.32 dB
-12.81 dB
1:57 03-Let It Snow! Let It Snow! Let It Snow!
DR12
-1.42 dB
-16.17 dB
3:12 04-The Christmas Song (Chestnuts Roasting on an Open Fire)
DR11
-1.38 dB
-13.69 dB
2:55 05-Coco's Christmas Lullaby
DR7
-1.01 dB
-9.63 dB
3:40 06-Rudolph
DR11
-1.01 dB
-14.65 dB
2:48 07-Yeah! It's Christmas
DR8
-1.01 dB
-9.88 dB
2:52 08-It's a Wonderful Life
DR10
-1.01 dB
-12.72 dB
3:09 09-Let's Not Go Shopping
DR10
-1.03 dB
-11.94 dB
3:27 10-Santa Baby (feat. Helene Fischer)
DR7
-1.21 dB
-10.74 dB
3:46 11-Best Christmas Ever
DR8
-1.10 dB
-9.77 dB
3:33 12-One Last Christmas
DR12
-1.05 dB
-15.07 dB
1:15 13-Coco's Christmas Lullaby Reprise
DR9
-1.24 dB
-12.39 dB
3:30 14-Time for Change
DR9
-1.20 dB
-11.79 dB
4:08 15-Idlewild
DR9
-1.01 dB
-11.37 dB
3:19 16-Darkest Night
DR9
-1.39 dB
-12.56 dB
3:34 17-Fairytales
DR8
-1.01 dB
-10.11 dB
2:44 18-Christmas (Baby Please Come Home) _
Комментарии пользователей:

Скачать похожую по жанру музыку:


Music 2019 torrent