Скачать Севара - Концерт в Ташкенте (2017) WEBRip 1080p торрент

Camila Cabello - Romance (2019) MP3

Сборник - Дискотека-90-х от DJ Allegro007 на Радио Paradox часть 2 (2019) MP3

VA - Top Shazam [19.11] (2019) MP3

Ласковый Май - Золотой альбом (2003) FLAC

VA - Громкие новинки Ноября Vol.2 (2019) MP3

Сборник - В машине с музыкой Vol. 8 (2019) MP3 от WXTRR

Grimes - Miss Anthropocene (2020) FLAC

Сборник - Кружатся диски. Популярные исполнители 70-х - 90-х годов (2013) MP3

VA - Take On Me: 80s Anthems - The Ultimate Collection(2019) MP3

Сборник - В машине с музыкой Vol. 6 (2019) MP3 от WXTRR

Павел Кашин - Москва не лечится (2019) MP3

Leonard Cohen - Thanks for the Dance [24bit Hi-Res] (2019) FLAC

VA - 100 Greatest Shower Songs (2019) FLAC

Скачать сборники и альбомы музыки через торрент:

Севара - Концерт в Ташкенте (2017) WEBRip 1080p

Севара - Концерт в Ташкенте (2017) WEBRip 1080p

Название: [xfgiven_minidescr1][xfgiven_minidescr1]
Исполнитель: Севара Назархан
Год выхода: 2017
Жанр: POP
Продолжительность: 02:14:54
Формат: MKV
Размер: 1.36 GB


ID-файла: 1577
Размер: 55,38 Kb
Дата: 9-01-2019, 02:40
Формат файла: torrent

Список композиций:
Sevara_2017.mkv
Format
: Matroska
Format version
: Version 4 / Version 2
File size
: 1.36 GiB
Duration
: 2 h 14 min
Overall bit rate
: 1 446 kb/s
Encoded date
: UTC 2019-01-05 22:03:03
Writing application
: mkvmerge v24.0.0 ('Beyond The Pale') 64-bit
Writing library
: libebml v1.3.6 libmatroska v1.4.9
Video
ID
: 1
Format
: AVC
Format/Info
: Advanced Video Codec
Format profile
: High@L4
Format settings
: CABAC / 3 Ref Frames
Format settings, CABAC
: Yes
Format settings, ReFrames
: 3 frames
Codec ID
: V_MPEG4/ISO/AVC
Duration
: 2 h 14 min
Bit rate
: 1 241 kb/s
Width
: 1 920 pixels
Height
: 1 080 pixels
Display aspect ratio
: 16:9
Frame rate mode
: Constant
Frame rate
: 25.000 FPS
Color space
: YUV
Chroma subsampling
: 4:2:0
Bit depth
: 8 bits
Scan type
: Progressive
Bits/(Pixel*Frame)
: 0.024
Stream size
: 1.17 GiB (86%)
Default
: Yes
Forced
: No
Color range
: Limited
Color primaries
: BT.709
Transfer characteristics
: BT.709
Matrix coefficients
: BT.709
Audio
ID
: 2
Format
: AAC
Format/Info
: Advanced Audio Codec
Format profile
: LC
Codec ID
: A_AAC-2
Duration
: 2 h 14 min
Bit rate
: 204 kb/s
Channel(s)
: 2 channels
Channel positions
: Front: L R
Sampling rate
: 48.0 kHz
Frame rate
: 46.875 FPS (1024 SPF)
Compression mode
: Lossy
Stream size
: 196 MiB (14%)
Language
: Russian
Default
: Yes
Forced
: No
_
Комментарии пользователей:

Скачать похожую по жанру музыку:


Music 2019 torrent