Скачать Italove - Extended And Remixed (2018) FLAC торрент

Ария - Проклятье морей (2018) FLAC

Разные люди - 1992 (1992) FLAC

Mojo Makers - Songs of the Sirens (2018) MP3 от Vanila

Сборник клипов - Deutsche Music Hits. Часть 2 (2018) WEBRip 1080p, WEBRip 2160р

Power Tale - Дискография (2016-2018) МР3

Feddy (ex-Отдел самоискоренения) - Futuristic Figure (2007) FLAC

Steve Perry - Discography (1984-2018) MP3

Alex Unlezz - State Of Dancecore Vol. 3 (2018) MP3

НЕва - Наследие Номада (2014) FLAC

Дочь Монро и Кеннеди - Левая мечта (2008) FLAC

Борис Циммерман - Грешной души педаль (2012) FLAC

Gil Evans - Priestess (1983) MP3

VA - Billboard Hot 100 Singles Chart [24.11] (2018) MP3

Скачать сборники и альбомы музыки через торрент:

Italove - Extended And Remixed (2018) FLAC

Italove - Extended And Remixed (2018) FLAC

Название: Extended And Remixed
Исполнитель: Italove
Год выхода: 2018
Жанр: Italo-Disco, Euro-Disco, Synth-pop
Продолжительность: 01:11:54
Формат: FLAC
Размер: 544.15 MB


ID-файла: 734
Размер: 13,15 Kb
Дата: 3-11-2018, 04:10
Формат файла: torrent

Список композиций:
01. Italove - Stockholm Is Calling (Extended Mix) (4:44)
02. Italove - Follow Me To Mexico (Extended Mix) (4:43)
03. Italove feat. TQ - Rhythm Of Love (Extended Mix) (7:11)
04. Italove - Too Late To Cry (Matt Pop Club) (7:20)
05. Italove - We Don't Care (Mirko Hirsch Remix) (3:56)
06. Italove - Heading For The Sun (Extended Mix) (4:57)
07. Italove feat. TQ - I Need Your Love (Extended Mix) (5:02)
08. Italove feat. Fred Ventura - Never Surrender (Italoconnection Remix) (4:28)
09. Italove - I Trust You (Like I Trust Myself) (Matt Pop Club Mix) (6:14)
10. Italove feat. Ken Laszlo - Disco Queen (Flashback Re-edit) (6:45)
11. Italove - Strangers In The Night (Extended Mix) (4:46)
12. Italove - L'amour (Flashback Remix Revisited) (5:34)
13. Italove - Too Late To Cry (Extended Version) (6:11)Список композиций:
Exact Audio Copy V1.3 from 2. September 2016
EAC extraction logfile from 6. October 2018, 21:41
Italove / Extended And Remixed
Used drive : PLEXTOR CD-ROM PX-54TA
Adapter: 1 ID: 1
Read mode
: Secure
Utilize accurate stream : Yes
Defeat audio cache
: Yes
Make use of C2 pointers : No
Read offset correction
: 12
Overread into Lead-In and Lead-Out
: No
Fill up missing offset samples with silence : Yes
Delete leading and trailing silent blocks
: No
Null samples used in CRC calculations
: Yes
Used interface
: Native Win32 interface for Win NT & 2000
Gap handling
: Appended to previous track
Used output format
: User Defined Encoder
Selected bitrate
: 1024 kBit/s
Quality
: High
Add ID3 tag
: No
Command line compressor
: C:Program Files (x86)Exact Audio CopyFlacflac-1.3.2-winflac-1.3.2-winwin64flac.exe
Additional command line options : -V -6 -T "COMMENT=ripped by Krevetka1972 special for new-team org" -T "ARTIST=%artist%" -T "TITLE=%title%" -T "ALBUM=%albumtitle%" -T "DATE=%year%" -T "TRACKNUMBER=%tracknr%" -T "GENRE=%genre%" -T "ALBUMARTIST=%albuminterpret%" %source% -o %dest%
TOC of the extracted CD
Track |
Start | Length | Start sector | End sector
---------------------------------------------------------
1 | 0:00.00 | 4:43.56 |
0
|
21280
2 | 4:43.56 | 4:42.56 |
21281
|
42486
3 | 9:26.37 | 7:10.56 |
42487
|
74792
4 | 16:37.18 | 7:19.65 |
74793
|
107782
5 | 23:57.08 | 3:56.28 |
107783
|
125510
6 | 27:53.36 | 4:57.37 |
125511
|
147822
7 | 32:50.73 | 5:02.18 |
147823
|
170490
8 | 37:53.16 | 4:28.37 |
170491
|
190627
9 | 42:21.53 | 6:14.37 |
190628
|
218714
10 | 48:36.15 | 6:45.37 |
218715
|
249126
11 | 55:21.52 | 4:46.37 |
249127
|
270613
12 | 60:08.14 | 5:34.37 |
270614
|
295700
13 | 65:42.51 | 6:11.28 |
295701
|
323553
Track 1
Filename G:Italove - 2018 - Extended And Remixed (Analog Language # AL29)1. Italove - Stockholm Is Calling (Extended Mix).wav
Pre-gap length 0:00:02.00
Peak level 63.7 %
Extraction speed 3.8 X
Track quality 100.0 %
Test CRC 506DCB75
Copy CRC 506DCB75
Accurately ripped (confidence 2) [EF970233] (AR v2)
Copy OK
Track 2
Filename G:Italove - 2018 - Extended And Remixed (Analog Language # AL29)2. Italove - Follow Me To Mexico (Extended Mix).wav
Pre-gap length 0:00:02.00
Peak level 69.2 %
Extraction speed 4.3 X
Track quality 100.0 %
Test CRC 62D4E14C
Copy CRC 62D4E14C
Accurately ripped (confidence 2) [E14EF946] (AR v2)
Copy OK
Track 3
Filename G:Italove - 2018 - Extended And Remixed (Analog Language # AL29)3. Italove Featuring – TQ - Rhythm Of Love (Extended Mix).wav
Pre-gap length 0:00:02.00
Peak level 75.4 %
Extraction speed 5.0 X
Track quality 100.0 %
Test CRC E23F81AF
Copy CRC E23F81AF
Accurately ripped (confidence 2) [F90CD72C] (AR v2)
Copy OK
Track 4
Filename G:Italove - 2018 - Extended And Remixed (Analog Language # AL29)4. Italove - Too Late To Cry (Matt Pop Club).wav
Pre-gap length 0:00:02.00
Peak level 84.8 %
Extraction speed 5.2 X
Track quality 99.9 %
Test CRC 616BDE05
Copy CRC 616BDE05
Accurately ripped (confidence 2) [15DE1337] (AR v2)
Copy OK
Track 5
Filename G:Italove - 2018 - Extended And Remixed (Analog Language # AL29)5. Italove Remix – Mirko Hirsch - We Don't Care (Mirko Hirsch Remix).wav
Pre-gap length 0:00:02.00
Peak level 76.8 %
Extraction speed 4.9 X
Track quality 99.9 %
Test CRC D56197BF
Copy CRC D56197BF
Accurately ripped (confidence 2) [F7989165] (AR v2)
Copy OK
Track 6
Filename G:Italove - 2018 - Extended And Remixed (Analog Language # AL29)6. Italove - Heading For The Sun (Extended Mix).wav
Pre-gap length 0:00:02.00
Peak level 69.4 %
Extraction speed 5.4 X
Track quality 99.9 %
Test CRC 6B3FF35F
Copy CRC 6B3FF35F
Accurately ripped (confidence 2) [1E059CDE] (AR v2)
Copy OK
Track 7
Filename G:Italove - 2018 - Extended And Remixed (Analog Language # AL29)7. Italove Featuring – TQ - I Need Your Love (Extended Mix).wav
Pre-gap length 0:00:02.00
Peak level 69.1 %
Extraction speed 6.3 X
Track quality 100.0 %
Test CRC 9E012CB6
Copy CRC 9E012CB6
Accurately ripped (confidence 2) [222B423B] (AR v2)
Copy OK
Track 8
Filename G:Italove - 2018 - Extended And Remixed (Analog Language # AL29)8. Italove Featuring – Fred Ventura - Never Surrender (Italoconnection Remix).wav
Pre-gap length 0:00:02.00
Peak level 74.9 %
Extraction speed 6.5 X
Track quality 100.0 %
Test CRC E4F5430C
Copy CRC E4F5430C
Accurately ripped (confidence 2) [155F49DA] (AR v2)
Copy OK
Track 9
Filename G:Italove - 2018 - Extended And Remixed (Analog Language # AL29)9. Italove Remix – Matt Pop - I Trust You (Like I Trust Myself) (Matt Pop Club Mix).wav
Pre-gap length 0:00:02.00
Peak level 66.9 %
Extraction speed 6.4 X
Track quality 99.9 %
Test CRC 4583048F
Copy CRC 4583048F
Accurately ripped (confidence 2) [F872154E] (AR v2)
Copy OK
Track 10
Filename G:Italove - 2018 - Extended And Remixed (Analog Language # AL29)10. Italove Featuring – Ken Laszlo - Disco Queen (Flashback Re-edit).wav
Pre-gap length 0:00:02.00
Peak level 74.0 %
Extraction speed 7.3 X
Track quality 100.0 %
Test CRC D46D0580
Copy CRC D46D0580
Accurately ripped (confidence 2) [757C3746] (AR v2)
Copy OK
Track 11
Filename G:Italove - 2018 - Extended And Remixed (Analog Language # AL29)11. Italove - Strangers In The Night (Extended Mix).wav
Pre-gap length 0:00:02.00
Peak level 72.7 %
Extraction speed 6.6 X
Track quality 99.9 %
Test CRC 4273E65B
Copy CRC 4273E65B
Accurately ripped (confidence 2) [36912C28] (AR v2)
Copy OK
Track 12
Filename G:Italove - 2018 - Extended And Remixed (Analog Language # AL29)12. Italove - L'amour (Flashback Remix Revisited).wav
Pre-gap length 0:00:02.00
Peak level 67.2 %
Extraction speed 7.7 X
Track quality 100.0 %
Test CRC 338CF34D
Copy CRC 338CF34D
Accurately ripped (confidence 2) [8DB7240B] (AR v2)
Copy OK
Track 13
Filename G:Italove - 2018 - Extended And Remixed (Analog Language # AL29)13. Italove - Too Late To Cry (Extended Version).wav
Pre-gap length 0:00:02.00
Peak level 77.8 %
Extraction speed 8.1 X
Track quality 100.0 %
Test CRC A595BE6C
Copy CRC A595BE6C
Accurately ripped (confidence 2) [3FC526AA] (AR v2)
Copy OK
All tracks accurately ripped
No errors occurred
End of status report
---- AcoustID Plugin V1.2.0
Total fingerprints: 13
---- CUETools DB Plugin V2.1.6
[CTDB TOCID: W7KMfNBqquJZmzgAiD.nmHfGSMw-] found
Submit result: W7KMfNBqquJZmzgAiD.nmHfGSMw- has been confirmed
Track | CTDB Status
1
| (4/4) Accurately ripped
2
| (4/4) Accurately ripped
3
| (4/4) Accurately ripped
4
| (4/4) Accurately ripped
5
| (4/4) Accurately ripped
6
| (4/4) Accurately ripped
7
| (4/4) Accurately ripped
8
| (4/4) Accurately ripped
9
| (4/4) Accurately ripped
10
| (4/4) Accurately ripped
11
| (4/4) Accurately ripped
12
| (4/4) Accurately ripped
13
| (4/4) Accurately ripped
==== Log checksum D11E0DCA60686ACD855F42575924A049E6721944465EAF3E1BCA9152E421FD16 ====
[url=http://otvetkrasivo.ru/uploads/files/2018-11/italove.extended.and.remixed.2018.flac.torrent]

Скачать похожую по жанру музыку:

Комментарии пользователей:
Ваше Имя:
Ваш E-Mail:
Код:
Кликните на изображение чтобы обновить код, если он неразборчив
Введите код:

Music 2018 torrent