Скачать Концерт - ВИА Поющие гитары – Нет тебя прекрасней. 50 лет - мы вместе (2018) DVB от AND03AND торрент

Электроверсия - Дискография [5 Альбомов] (1989-1992) FLAC

Khalid - Free Spirit (2019) FLAC

Supertramp - Crisis? What Crisis? [Mastering YMS X] (1975) WAV

Сборник - Самые cкачиваемые треки ВКонтакте Vol.10 [Весна] (2019) MP3

VA - Billboard Hot 100 Singles Chart [06.04] (2019) MP3

Billie Eilish - When We All Fall Asleep, Where Do We Go? (2019) FLAC

Валерий Леонтьев - Концерт к 70-летию (2019) HDTVRip-HEVC 1080p

Сборник - The Best Of The Rock #4 2019 (2019) MP3

Анонс - Коллекция [7 Альбомов] (1988-1992) FLAC

Ольга Серябкина - Косатка в небе (2019) MP3

Toto - 40 Tours Around The Sun [Live] (2019) MP3

VA - Дискотека 80-90-х годов по-новому [50] (2018) MP3 от Виталия 72

Lika Star (Лика) - Дискография [6 Альбомов, 8 Синглов, Сборник] (1993-2019) FLAC

Скачать сборники и альбомы музыки через торрент:

Концерт - ВИА Поющие гитары – Нет тебя прекрасней. 50 лет - мы вместе (2018) DVB от AND03AND

Концерт - ВИА Поющие гитары – Нет тебя прекрасней. 50 лет - мы вместе (2018) DVB от AND03AND

Название: Концерт - ВИА Поющие гитары – Нет тебя прекрасней. 50 лет - мы вместе
Исполнитель: [xfgiven_minidescr2] [xfgiven_minidescr2]
Год выхода: 2018
Жанр: Pop, Retro
Продолжительность: 01:15:00
Формат: [xfgiven_minidescr6] [xfgiven_minidescr6]
Размер: 1.36 GB


ID-файла: 2453
Размер: 15,93 Kb
Дата: 2-04-2019, 23:07
Формат файла: torrent

Список композиций:
01 (0x321)
Menu ID
: 1 (0x1)
Format
: AVC
Format/Info
: Advanced Video Codec
Format profile
: Main@L3
Format settings
: CABAC / 4 Ref Frames
Format settings, CABAC
: Yes
Format settings, ReFrames
: 4 frames
Codec ID
: 27
Duration
: 1 h 14 min
Bit rate
: 2 216 kb/s
Width
: 720 pixels
Height
: 576 pixels
Display aspect ratio
: 16:9
Frame rate
: 25.000 FPS
Standard
: PAL
Color space
: YUV
Chroma subsampling
: 4:2:0
Bit depth
: 8 bits
Scan type
: MBAFF
Scan type, store method
: Interleaved fields
Scan order
: Top Field First
Bits/(Pixel*Frame)
: 0.214
Stream size
: 1.16 GiB (85%)
Color range
: Limited
Color primaries
: BT.601 PAL
Transfer characteristics
: BT.470 System B/G
Matrix coefficients
: BT.470 System B/G
Audio
ID
: 802 (0x322)
Menu ID
: 1 (0x1)
Format
: MPEG Audio
Format version
: Version 1
Format profile
: Layer 2
Codec ID
: 3
Duration
: 1 h 14 min
Bit rate mode
: Constant
Bit rate
: 256 kb/s
Channel(s)
: 2 channels
Sampling rate
: 48.0 kHz
Frame rate
: 41.667 FPS (1152 SPF)
Compression mode
: Lossy
Stream size
: 137 MiB (10%)
Language
: English
[url=http://otvetkrasivo.ru/uploads/files/2019-04/pojuwie_gitary__net_tebja_prekrasnej._50_let_-_.torrent]
Комментарии пользователей:
Ваше Имя:
Ваш E-Mail:
Код:
Кликните на изображение чтобы обновить код, если он неразборчив
Введите код:

Скачать похожую по жанру музыку:


Music 2019 torrent