Скачать Новогодний концерт - «Фантастическая ночь» (2018-19) DVB торрент

Сборник - Русский Шансон 82 (2018) MP3 от Виталия 72

Дискотека 80-х Авторадио [02.01] (2019) HDTVRip-HEVC 1080p

Сборник - Лучшие новогодние песни к празднику (2017) MP3

Fатальный Выстрел - Дискография (2015-2018) МР3

Сборник клипов - Новогодние клипы (2010-2018) HD 720p

VA - A State Of Trance Top 20: January 2019 [Selected by Armin Van Buuren] (2019) MP3

Сборник клипов - Best Ultra Music Hits 2018. Top 100 (2018) WEBRip 1080p от Marksheyder

VA - Tranceformation 2018 (2018) MP3

Александр Кальянов - Дискография (1985-2004) FLAC

VA - Хит-парад зарубежного рока (2018) MP3

Якорь - Я не вернусь (2018) MP3

Inglorious - Ride to Nowhere [Japanese Edition] (2019) MP3

VA - Record Super Chart 568 [05.01] (2019) MP3

Скачать сборники и альбомы музыки через торрент:

Новогодний концерт - «Фантастическая ночь» (2018-19) DVB

Новогодний концерт - «Фантастическая ночь» (2018-19) DVB

Название: [xfgiven_minidescr1][xfgiven_minidescr1]
Исполнитель: [xfgiven_minidescr2] [xfgiven_minidescr2]
Год выхода: 2018
Жанр: POP
Продолжительность: 02:57:05
Формат: MKV
Размер: 2.91 GB


ID-файла: 1580
Размер: 59,1 Kb
Дата: 9-01-2019, 02:51
Формат файла: torrent

Список композиций:
New_Year_2019.mkv
Format
: Matroska
Format version
: Version 4 / Version 2
File size
: 2.91 GiB
Duration
: 2 h 57 min
Overall bit rate
: 2 353 kb/s
Writing application
: Lavf57.71.100
Writing library
: Lavf57.71.100
ErrorDetectionType
: Per level 1
Video
ID
: 1
Format
: AVC
Format/Info
: Advanced Video Codec
Format profile
: Main@L3
Format settings
: CABAC / 4 Ref Frames
Format settings, CABAC
: Yes
Format settings, ReFrames
: 4 frames
Codec ID
: V_MPEG4/ISO/AVC
Duration
: 2 h 57 min
Bit rate
: 2 114 kb/s
Width
: 720 pixels
Height
: 576 pixels
Display aspect ratio
: 16:9
Frame rate mode
: Constant
Frame rate
: 25.000 FPS
Standard
: PAL
Color space
: YUV
Chroma subsampling
: 4:2:0
Bit depth
: 8 bits
Scan type
: MBAFF
Scan type, store method
: Interleaved fields
Scan order
: Top Field First
Bits/(Pixel*Frame)
: 0.204
Stream size
: 2.62 GiB (90%)
Default
: Yes
Forced
: No
Color range
: Limited
Color primaries
: BT.601 PAL
Transfer characteristics
: BT.470 System B/G
Matrix coefficients
: BT.470 System B/G
DURATION
: 02:57:06,800000000
Audio
ID
: 2
Format
: MPEG Audio
Format version
: Version 1
Format profile
: Layer 2
Format settings
: Joint stereo / Intensity Stereo + MS Stereo
Codec ID
: A_MPEG/L2
Codec ID/Hint
: MP2
Duration
: 2 h 57 min
Bit rate mode
: Constant
Bit rate
: 192 kb/s
Channel(s)
: 2 channels
Sampling rate
: 48.0 kHz
Compression mode
: Lossy
Delay relative to video
: 192 ms
Stream size
: 243 MiB (8%)
Language
: Ukrainian
Default
: Yes
Forced
: No
DURATION
: 02:57:05,888000000
[url=http://otvetkrasivo.ru/uploads/files/2019-01/15_novogodnij.koncert.fantasticheskaya.noch.2018.19.d.torrent]

Скачать похожую по жанру музыку:

Комментарии пользователей:
Ваше Имя:
Ваш E-Mail:
Код:
Кликните на изображение чтобы обновить код, если он неразборчив
Введите код:

Music 2019 torrent